张韶涵

  • A+
所属分类:华语流行

。此张新专辑,动用陈伟、林隆璇、黄怡、王治平、陈俊廷5位制作人。初期,大家以为Angela只是一个很会唱歌的人,没想到在制作期间,Angela完全颠覆初期想像,不断打翻作品格局,每唱完一次,就让制作人有全新感受,并且让声音主导编曲,再次重编作品,简直搞疯一票音乐制作人。

『没有一个音乐生命的形成,是可以控制的!』 这是 Angela整张专辑的最佳写照!

如同侏儸纪时期,自然而然的随著她小小的身体,却发出巨大的声音能量而顺理成章!

『我以为一开口就是要唱歌了』 Angela说 少见的声音穿透力 纯淨而高亢 黄金特训 365天 不断努力终于梦想成真 在加拿大参加中广流行之星歌唱比赛冠军的张韶涵,从小就爱唱歌,举凡张惠妹、张雨生、范晓萱的歌都是她常听的歌。 为了爱唱歌,几凡在加拿大大大小小的歌唱比赛,都见得到张韶涵的影子。拥有身经百战的她,参加比赛除了满足唱歌的慾望,还可以获得许多奖品,家裡大大小小的家电用品就是她打拼来的成果。 之后,与林隆璇老师的认识,再回到台湾与唱片公司接触,张韶涵初期的唱片之旅并不顺遂,直到与福茂唱片接触,被老闆张耕宇慧眼识英雄,才正式展开唱歌生涯。 经过公司一连串一整年的严格训练,唱歌、录音、拍照、舞蹈、游泳、跑步、心肺训练等体能训练,以及校园演唱等,张韶涵都一一达到公司要求,连她最害怕的游泳,也达到公司所订的标准。一切的辛苦流泪流汗,都为了将来站在舞台上的那一刻!

如同黄中平导演所说 :『已经很久没有听到这样的声音了 …』

亚洲新声音张韶涵,令人拭目以待!

“梦想成真5部曲”

1.《寓言》: 充满童谣且具民族风的曲风,是英国民谣的圣诞歌,由新锐作词者王雅君填词,特质歌手小安改编填曲的惊喜之作,并由天后制作人陈伟操刀制作。充满异国民族情调的音乐风格,在张韶涵的声音穿透力中,童真而不修饰的高亢嗓音,展现出一个独一无二的亚洲新声音。

2.《我的最爱》 :制作人陈伟割爱的压箱宝作品,由陈伟于光中共同填词,陈伟作曲的《我的最爱》,唱起慢歌直接不矫情造作的Angela,唱起抒情慢歌一方面有着80后的感情态度,另一方面却有流露出内敛的情感。

3.《天边》: 姚若龙填词,潘协庆作曲,是根据海豚湾恋人中女主角天边所量身力作的好歌。甜美而愉悦的中快版曲风,完整呈现Angela一步一脚印的唱歌梦想。

4.《雨后》: 唱出小女生酸酸甜甜的恋爱心情,由姚若龙填词,曲是师姐宋新妮的作品。没有包袱的唱腔及情感,是继《遗失的美好》后的好听作品。

5.《呐喊》: 音乐创作人深白色尝试民族曲风的流行之作。 Angela与生俱来的意志力,不受限的身体能量,呐喊出大器的唱腔,让人一窥辽阔的声音穿透力。

专辑曲目:

1. Over The Rainbow
2. 寓言
3. 都只因为你
4. 我的最爱
5. 天边
6. 听见月光
7. 呐喊
8. 雨后
9. 明明爱你
10. 真爱冒险
11. 遗失的美好
12. Journey

Exact Audio Copy V1.0 beta 2 from 29. April 2011

EAC 抓取日志文件从13. 二月 2013, 10:10

张韶涵 / Over the Rainbow

使用驱动器  :TSSTcorpCDDVDW TS-H653F   Adapter: 3  ID: 1

读取模式      : 可靠Secure
使用精确流     : 是
清空音频缓存    : 是
使用 C2 指示器 : 否

读取偏移校正:               : 6
读取 Lead-In 和 Lead-Out : 否
用静音填充抓取中丢失偏移的采样       : 是
去除首尾静音块               : 否
在CRC 计算中使用了空样本       : 是
已用接口                  : Win NT 及 2000 本地 Win32 接口

所用输出模式: : 内部 WAV 函数
样本格式    : 44.100 Hz; 16 Bit; 立体声

已抓取 CD 的 TOC

     音轨 |    起始    |    长度    |  起始扇区  |  结束扇区
    ---------------------------------------------------------
        1  |  0:00.00 |  3:30.58 |         0    |    15807   
        2  |  3:30.58 |  4:07.50 |     15808    |    34382   
        3  |  7:38.33 |  3:45.50 |     34383    |    51307   
        4  | 11:24.08 |  4:20.70 |     51308    |    70877   
        5  | 15:45.03 |  4:16.08 |     70878    |    90085   
        6  | 20:01.11 |  4:48.54 |     90086    |   111739   
        7  | 24:49.65 |  4:14.51 |    111740    |   130840   
        8  | 29:04.41 |  4:08.15 |    130841    |   149455   
        9  | 33:12.56 |  4:35.24 |    149456    |   170104   
       10  | 37:48.05 |  3:57.49 |    170105    |   187928   
       11  | 41:45.54 |  4:21.19 |    187929    |   207522   
       12  | 46:06.73 |  3:44.51 |    207523    |   224373   

范围状态及错误

已选择范围

     文件名 C:\张韶涵 - Over the Rainbow.wav

     峰值电平 96.9 %
     抓取速度 7.1 X
     范围质量 99.9 %
     复制 CRC A07BE062
     复制成功

没有错误发生

试听曲目:寓言

链接:https://pan.baidu.com/s/1DGsK1ncPeixMbZwQX_B3rw

文件下载
【网盘链接+提取码】登录网站帐号,发表评论后刷新页面在此处可见>>>「百度链接+提取码」注册账号+发表评论
网盘下载 张韶涵
歌曲搜

发表评论

您必须才能发表评论!

目前评论:12   其中:访客  12   博主  0

    • avatar anegluan 2

      感谢分享!!!

      • avatar sanniu36 3

        谢谢分享

        • avatar alanlung 2

          谢谢分享

          • avatar cqh007 4

            谢谢分享

            • avatar cctv7081 2

              感觉版主分享

              • avatar liwenze 6

                站帐号,发表评论后刷新页面在此

                • avatar duan88549879 4

                  站帐号,发表评论后刷新页面在此

                  • avatar 38840514 9

                    谢谢

                    • avatar weattony 4

                      谢谢分享

                      • avatar zzswgs 6

                        听后评论

                        • avatar 376591547 7

                          谢谢分享

                          • avatar kld8881 9

                            谢谢分享好歌